[Pure-TS.com] Layla Bugatti - big booty MILF Layla gets fucked by her neighbor (23 Apr 2016) [Shemale, Hardcore, 1080p]

  • Объявления

 Статистика раздачи 
Размер: 1.02 ГБ   |  Зарегистрирован: 23 апр 2016, 08:16
Сидеров: 1  [ 0 байт/сек ]     Личеров: 3  [ 0 байт/сек ]  

Сообщение Joseph » 23 апр 2016, 08:16

Имя актрисы: Layla Bugatti
Название ролика: big booty MILF Layla gets fucked by her neighbor
Подсайт и сайт: Pure-TS.com

Год производства: 2016 г.
Жанр: Shemale, Hardcore
Продолжительность: 00:25:07

General
Complete name : [Pure-TS] Layla Bugatti - big booty MILF Layla gets fucked by her neighbor (23 Apr 2016) rq (1080p).mp4
Format : MPEG-4
Format profile : Base Media / Version 2
Codec ID : mp42
File size : 1.02 GiB
Duration : 25mn 7s
Overall bit rate mode : Variable
Overall bit rate : 5 785 Kbps
Encoded date : UTC 2016-04-05 22:07:53
Tagged date : UTC 2016-04-05 22:08:18
?TIM : 00;00;00;00
?TSC : 30000
?TSZ : 1001

Video
ID : 1
Format : AVC
Format/Info : Advanced Video Codec
Format profile : Main@L4.1
Format settings, CABAC : Yes
Format settings, ReFrames : 3 frames
Format settings, GOP : M=4, N=29
Codec ID : avc1
Codec ID/Info : Advanced Video Coding
Duration : 25mn 7s
Bit rate : 5 463 Kbps
Width : 1 920 pixels
Height : 1 080 pixels
Display aspect ratio : 16:9
Frame rate mode : Constant
Frame rate : 29.970 fps
Standard : NTSC
Color space : YUV
Chroma subsampling : 4:2:0
Bit depth : 8 bits
Scan type : Progressive
Bits/(Pixel*Frame) : 0.088
Stream size : 982 MiB (94%)
Language : English
Encoded date : UTC 2016-04-05 22:07:53
Tagged date : UTC 2016-04-05 22:07:53
Color primaries : BT.709-5, BT.1361, IEC 61966-2-4, SMPTE RP177
Transfer characteristics : BT.709-5, BT.1361
Matrix coefficients : BT.709-5, BT.1361, IEC 61966-2-4 709, SMPTE RP177

Audio
ID : 2
Format : AAC
Format/Info : Advanced Audio Codec
Format profile : LC
Codec ID : 40
Duration : 25mn 7s
Source duration : 25mn 7s
Bit rate mode : Variable
Bit rate : 317 Kbps
Maximum bit rate : 421 Kbps
Channel(s) : 2 channels
Channel positions : Front: L R
Sampling rate : 48.0 KHz
Compression mode : Lossy
Stream size : 57.0 MiB (5%)
Source stream size : 57.0 MiB
Language : English
Encoded date : UTC 2016-04-05 22:07:53
Tagged date : UTC 2016-04-05 22:07:53
Скриншоты

   
Торрент: Зарегистрирован [23 апр 2016, 08:16] Скачать торрент
Скачать торрент
[ Размер 10.61 КБ ]
Статус:
 
.torrent скачан: 31 раз
Хэш: b78b737420d4bdfe3d1f6beb75e66ab156d7ca7f
Размер: 1.02 ГБ (1 089 930 600 байт)
   
Аватара пользователя
Joseph
Модератор
Модератор
 
Раздал: 9.2 ТБ
Скачал: 0 байт
Ратио: Seed.
Сообщения: 24534
Зарегистрирован: 15 ноя 2014, 22:22

Объявления

Вернуться в Транссексуалы / Shemale Transsexual




cron