Grazie Nonna - Incesti italiani 21 / Благодаря Нонна - итальянский инцест 21 (Andy Casanova, showtimefilm) [2010 г., Incesto,Etero,film con trama, DVDRip]

  • Объявления

 Статистика раздачи 
Размер: 704.88 МБ   |  Зарегистрирован: 10 мар 2016, 11:15
Сидеров: 9  [ 0 байт/сек ]     Личеров: 2  [ 0 байт/сек ]  

Сообщение xxx2u » 10 мар 2016, 11:15

Grazie Nonna - Incesti italiani 21 / Благодаря Нонна - итальянский инцест 21

Год производства: 2010 г.
Страна: Italia
Жанр: Incesto,Etero, FILM CON TRAMA
Продолжительность: 01:32:00
Язык: Итальянский

Режиссер: Andy Casanova
Студия: showtimefilm

В ролях: EVITA POZZI, VALENTINA CANALI, SIMONA CAVALLI, FRANCO BIGINI. TORNANO GLI

Описание: Фильм с новой инцест порно звезды Franco Bigini и Evita Pozzi эксклюзивные Showtime!

Format : AVI
Format/Info : Audio Video Interleave
File size : 705 MiB
Duration : 1h 32mn
Overall bit rate : 1 068 Kbps
Writing application : VirtualDubMod 1.5.10.2 (build 2540/release)
Writing library : VirtualDub build 32842/release

Video
ID : 0
Format : MPEG-4 Visual
Format profile : Advanced Simple@L5
Format settings, BVOP : 2
Format settings, QPel : No
Format settings, GMC : No warppoints
Format settings, Matrix : Default (H.263)
Codec ID : XVID
Codec ID/Hint : XviD
Duration : 1h 32mn
Bit rate : 930 Kbps
Width : 512 pixels
Height : 288 pixels
Display aspect ratio : 16:9
Frame rate : 25.000 fps
Color space : YUV
Chroma subsampling : 4:2:0
Bit depth : 8 bits
Scan type : Progressive
Compression mode : Lossy
Bits/(Pixel*Frame) : 0.252
Stream size : 614 MiB (87%)
Writing library : XviD 70

Audio
ID : 1
Format : MPEG Audio
Format version : Version 1
Format profile : Layer 3
Mode : Joint stereo
Mode extension : MS Stereo
Codec ID : 55
Codec ID/Hint : MP3
Duration : 1h 32mn
Bit rate mode : Constant
Bit rate : 128 Kbps
Channel(s) : 2 channels
Sampling rate : 44.1 KHz
Compression mode : Lossy
Stream size : 84.5 MiB (12%)
Alignment : Split accross interleaves
Interleave, duration : 40 ms (1.00 video frame)
Interleave, preload duration : 500 ms
Writing library : LAME3.98.4)





   
Торрент: Зарегистрирован [10 мар 2016, 11:15] Скачать торрент
Скачать торрент
[ Размер 14.39 КБ ]
Статус:
 
.torrent скачан: 272 раз
Хэш: 3f593ebe7c895c65bd7867b17241ca5a2b0ccd31
Размер: 704.88 МБ (739 124 402 байт)
   
Аватара пользователя
xxx2u
 
Раздал: 133.77 ГБ
Скачал: 0 байт
Ратио: Seed.
Сообщения: 1393
Зарегистрирован: 09 авг 2015, 12:28

Объявления

Вернуться в Гонзо-фильмы / Gonzo & All Sex




cron