[brutal-facesitting.com]Cassidy - (Updated: 22 January 2016) (aka Assoli, Daryl Croft, Aruna Aghora)[2016 г., Femdom, Slave, Cunilingus, Pussy And Ass Worship, Pissing, Human toilet 720p]

  • Объявления

 Статистика раздачи 
Размер: 372.39 МБ   |  Зарегистрирован: 24 янв 2016, 18:02
Сидеров: 2  [ 0 байт/сек ]     Личеров: 0  [ 0 байт/сек ]  

Сообщение Joseph » 24 янв 2016, 18:02

Cassidy




Год производства: 2016 г.

Страна:Россия

Жанр: Femdom, Slave, Cunilingus, Pussy And Ass Worship, Human toilet

Продолжительность: 00:13:00

Студия: brutal-facesitting.com

В ролях: Cassidy

Описание:
Cassidy is using the slave’s tongue to get the orgasm. She sits on the bed and her slave is standing on his knees in front of her and working hard on polishing her clitoris with his tongue. Cassidy is pleasuring awesome feelings, but it is steel not enough for her, and she gets up in doggy pose in front of slave’s face and he continues his work. He should do his best; otherwise his Mistress will treat him with lots of slaps on his face. Cassidy makes the slave to lay on the bed and sits down on his face. She slides her cunt and asshole back and forth on his pulled out tongue, and making him to shove his tongue into her ass hole. And in that time she is caressing herself with fingers and pretty soon a strongest orgasm embraces her.



Тип HD видео: 720p
Mediainfo
File size : 372 MiB
Duration : 13mn 1s
Overall bit rate mode : Constant
Overall bit rate : 3 997 Kbps
Maximum Overall bit rate : 4 018 Kbps
Encoded date : UTC 2016-01-22 08:10:34.136
SfOriginalFPS : 300000

Video
ID : 2
Format : VC-1
Format profile : MP@HL
Codec ID : WMV3
Codec ID/Info : Windows Media Video 9
Codec ID/Hint : WMV3
Description of the codec : Windows Media Video 9 - Professional
Duration : 13mn 1s
Bit rate mode : Constant
Bit rate : 3 793 Kbps
Width : 1 280 pixels
Height : 720 pixels
Display aspect ratio : 16:9
Frame rate : 30.000 fps
Bit depth : 8 bits
Compression mode : Lossy
Bits/(Pixel*Frame) : 0.137
Stream size : 353 MiB (95%)
Language : Russian

Audio
ID : 1
Format : WMA
Format version : Version 2
Codec ID : 161
Codec ID/Info : Windows Media Audio
Description of the codec : Windows Media Audio 9.2 - 192 kbps, 48 kHz, stereo (A/V) 1-pass CBR
Duration : 13mn 1s
Bit rate mode : Constant
Bit rate : 192 Kbps
Channel(s) : 2 channels
Sampling rate : 48.0 KHz
Bit depth : 16 bits
Stream size : 17.9 MiB (5%)
Language : Russian


Скринлисты
Скриншоты
   
Торрент: Зарегистрирован [24 янв 2016, 18:02] Скачать торрент
Скачать торрент
[ Размер 15.01 КБ ]
Статус:
 
.torrent скачан: 70 раз
Хэш: a2cecf01b517a43fb2b1056fe78cdad8d5f2d5d8
Размер: 372.39 МБ (390 474 133 байт)
   
Аватара пользователя
Joseph
Модератор
Модератор
 
Раздал: 8.81 ТБ
Скачал: 0 байт
Ратио: Seed.
Сообщения: 24323
Зарегистрирован: 15 ноя 2014, 22:22

Объявления

Вернуться в Женское доминирование и страпон / Femdom & Strapon




cron